[HELP] "Hybrid encoder gui has stopped working
#1
Photo 
in the latest version of Hybrid 2018.04.08.1 the program does not open

just tell me "Hybrid encoder gui has stopped working" Dodgy Dodgy and closes

I have a computer with Windows 10 operating system

Please I need help
this program is great
Reply
#2
Try deinstalling with all settings and reinstalling.
Reply
#3
Selur

There is a problem with mp4box
practically makes the first pass and then stops
does not perform the other 2 steps to complete the conversion
instead if you set FFmpeg as default instead of MP4Box complete execution
I returned to the version 2018.02.18.1
waiting for the bug to be correct

Instead if you convert to avi format
whatever the format mediainfo indicates

MPlayer and FFmpeg Muxer

Frame rate                               : 29.970 (30000/1001) FPS

Original frame rate                      : 29.970 (29970/1000) FPS
OR
Frame rate                               : 23.976 (24000/1001) FPS

Original frame rate                      : 23.976 (23976/1000) FPS

25.000 or 30.000 OK
Reply
#4
Need a source sample and settings which allow me to reproduce the issue.
Since I haven't changed anything in that part of the code for ages with might be:
a. a problem with the analysis of the source
b. a bug in MP4Box
both I can't fix without a sample or lots of details about the source and what your are doing to reproduce this.

Cu Selur
Reply
#5
(12.05.2018, 07:48)Selur Wrote: Need a source sample and settings which allow me to reproduce the issue.
Since I haven't changed anything in that part of the code for ages with might be:
a. a problem with the analysis of the source
b. a bug in MP4Box
both I can't fix without a sample or lots of details about the source and what your are doing to reproduce this.

Cu Selur

Try it on any file, it should give you the same problem
same thing for converting to avi and checking with mediainfo in text mode
Reply
#6
Taking a random telecined 29.97fps source, letting Hybrid IVTC the source and using x265 as encoder (MP4Box is used as muxer).

The output is reported as:
Video
Count                                    : 344
Count of stream of this kind             : 1
Kind of stream                           : Video
Kind of stream                           : Video
Stream identifier                        : 0
StreamOrder                              : 0
ID                                       : 1
ID                                       : 1
Format                                   : HEVC
Format/Info                              : High Efficiency Video Coding
Format/Url                               : http://www.itu.int
Commercial name                          : HEVC
Format profile                           : Main 10@L3@Main
Internet media type                      : video/H265
Codec ID                                 : hvc1
Codec ID/Info                            : High Efficiency Video Coding
Codec ID/Url                             : http://www.itu.int/
Codec                                    : HEVC
Codec                                    : HEVC
Codec/CC                                 : hvc1
Codec profile                            : Main 10@L3@Main
Duration                                 : 27277
Duration                                 : 27 s 277 ms
Duration                                 : 27 s 277 ms
Duration                                 : 27 s 277 ms
Duration                                 : 00:00:27.277
Duration                                 : 00:00:27;06
Duration                                 : 00:00:27.277 (00:00:27;06)
Bit rate                                 : 1107945
Bit rate                                 : 1 108 kb/s
Maximum bit rate                         : 3569968
Maximum bit rate                         : 3 570 kb/s
Width                                    : 720
Width                                    : 720 pixels
Height                                   : 480
Height                                   : 480 pixels
Sampled_Width                            : 720
Sampled_Height                           : 480
Pixel aspect ratio                       : 0.889
Display aspect ratio                     : 1.333
Display aspect ratio                     : 4:3
Rotation                                 : 0.000
Frame rate mode                          : CFR
Frame rate mode                          : Constant
Frame rate                               : 23.976
Frame rate                               : 23.976 (24000/1001) FPS
FrameRate_Num                            : 24000
FrameRate_Den                            : 1001
Frame count                              : 654
Resolution                               : 10
Resolution                               : 10 bits
Colorimetry                              : 4:2:0
Color space                              : YUV
Chroma subsampling                       : 4:2:0
Chroma subsampling                       : 4:2:0
Bit depth                                : 10
Bit depth                                : 10 bits
Bits/(Pixel*Frame)                       : 0.134
Stream size                              : 3777715
Stream size                              : 3.60 MiB (100%)
Stream size                              : 4 MiB
Stream size                              : 3.6 MiB
Stream size                              : 3.60 MiB
Stream size                              : 3.603 MiB
Stream size                              : 3.60 MiB (100%)
Proportion of this stream                : 0.99769
Writing library                          : x265 - 2.7+25-e1ed4d609b52:[Windows][GCC 7.3.0][64 bit] 10bit
Writing library                          : x265 2.7+25-e1ed4d609b52:[Windows][GCC 7.3.0][64 bit] 10bit
Encoded_Library_Name                     : x265
Encoded_Library_Version                  : 2.7+25-e1ed4d609b52:[Windows][GCC 7.3.0][64 bit] 10bit
Encoding settings                        : cpuid=1173503 / frame-threads=4 / numa-pools=16 / wpp / no-pmode / no-pme / no-psnr / no-ssim / log-level=2 / input-csp=1 / input-res=720x480 / interlace=0 / total-frames=0 / level-idc=0 / high-tier=1 / uhd-bd=0 / ref=3 / no-allow-non-conformance / no-repeat-headers / annexb / no-aud / no-hrd / info / hash=0 / no-temporal-layers / no-open-gop / min-keyint=23 / keyint=250 / gop-lookahead=0 / bframes=4 / b-adapt=2 / b-pyramid / bframe-bias=0 / rc-lookahead=20 / lookahead-slices=0 / scenecut=40 / radl=0 / no-intra-refresh / ctu=64 / min-cu-size=8 / no-rect / no-amp / max-tu-size=32 / tu-inter-depth=1 / tu-intra-depth=1 / limit-tu=0 / rdoq-level=2 / dynamic-rd=0.00 / ssim-rd / signhide / no-tskip / nr-intra=0 / nr-inter=0 / no-constrained-intra / strong-intra-smoothing / max-merge=2 / limit-refs=0 / limit-modes / me=1 / subme=2 / merange=57 / temporal-mvp / weightp / no-weightb / no-analyze-src-pics / deblock=-1:-1 / sao / no-sao-non-deblock / rd=3 / no-early-skip / rskip / no-fast-intra / no-tskip-fast / no-cu-lossless / no-b-intra / no-splitrd-skip / rdpenalty=0 / psy-rd=2.50 / psy-rdoq=10.00 / no-rd-refine / no-lossless / cbqpoffs=-2 / crqpoffs=-2 / rc=crf / crf=18.0 / qcomp=0.60 / qpstep=4 / stats-write=0 / stats-read=0 / ipratio=1.40 / pbratio=1.30 / aq-mode=1 / aq-strength=0.00 / cutree / zone-count=0 / no-strict-cbr / qg-size=8 / no-rc-grain / qpmax=69 / qpmin=0 / no-const-vbv / sar=0 / overscan=0 / videoformat=5 / range=0 / colorprim=2 / transfer=2 / colormatrix=5 / chromaloc=0 / display-window=0 / max-cll=0,0 / min-luma=0 / max-luma=1023 / log2-max-poc-lsb=8 / vui-timing-info / vui-hrd-info / slices=1 / opt-qp-pps / opt-ref-list-length-pps / no-multi-pass-opt-rps / scenecut-bias=0.05 / no-opt-cu-delta-qp / no-aq-motion / no-hdr / no-hdr-opt / no-dhdr10-opt / no-idr-recovery-sei / analysis-reuse-level=5 / scale-factor=0 / refine-intra=0 / refine-inter=0 / refine-mv=0 / limit-sao / ctu-info=0 / no-lowpass-dct / refine-mv-type=0 / copy-pic=1 / max-ausize-factor=1.0 / no-dynamic-refine / no-single-sei
Encoded date                             : UTC 2018-05-12 06:04:47
Tagged date                              : UTC 2018-05-12 06:04:47
Color range                              : Limited
colour_description_present               : Yes
Matrix coefficients                      : BT.470 System B/G

Muxing call was:
MP4Box -par 1=8:9 -add "H:\Temp\08_04_31_1710_03.265"#video:fps=23.976 -brand hvc1 -itags tool="Hybrid 2018.05.10.1" -tmp "H:\Temp" -new "H:\Output\08_04_31_1710__06.mp4"

-> so no problem here. Which is why I asked for more details since using any file and any settings doesn't seem to do the trick here.

Cu Selur
Reply
#7
It is a bug of MP4Box

I think I solved the problem
or used UniversalExtractor or extracted all the Hybrid_2018.02.18.1 files
or copied MP4Box.exe into the 64Bit folder and worked

now we need to understand how to solve this problem

XVid with audio mp3 lame or ac3

Instead if you convert to avi format
whatever the format mediainfo indicates

MPlayer and FFmpeg Muxer

Frame rate                               : 29.970 (30000/1001) FPS

Original frame rate                      : 29.970 (29970/1000) FPS
OR
Frame rate                               : 23.976 (24000/1001) FPS

Original frame rate                      : 23.976 (23976/1000) FPS

25.000 or 30.000 OK


Video
ID                                       : 0
Format                                   : MPEG-4 Visual
Format profile                           : Advanced Simple@L5
Format settings                          : BVOP2
Format settings, BVOP                    : 2
Format settings, QPel                    : No
Format settings, GMC                     : No warppoints
Format settings, Matrix                  : Default (H.263)
Codec ID                                 : XVID
Codec ID/Hint                            : XviD
Duration                                 : 19 s 419 ms
Bit rate                                 : 1 283 kb/s
Width                                    : 720 pixels
Height                                   : 404 pixels
Display aspect ratio                     : 16:9
Frame rate                               : 29.970 (30000/1001) FPS
Original frame rate                      : 29.970 (29970/1000) FPS
Color space                              : YUV
Chroma subsampling                       : 4:2:0
Bit depth                                : 8 bits
Scan type                                : Progressive
Compression mode                         : Lossy
Bits/(Pixel*Frame)                       : 0.147
Stream size                              : 2.97 MiB (90%)
Writing library                          : XviD 67
Reply
#8
Quote:It is a bug of MP4Box

I think I solved the problem
or used UniversalExtractor or extracted all the Hybrid_2018.02.18.1 files
or copied MP4Box.exe into the 64Bit folder and worked

now we need to understand how to solve this problem
Yes, for me it's still unclear what the problem is since you didn't give me details on how to reproduce the issue.
-> Atm. I can't contact the MP4Box team to look into it since I can't reproduce the issue here and have no clue what you are doing.
Your statement that I could reproduce the issue with any source was wrong.

---

Assuming that you have two problems and the second one it related to avi muxing.
I took a 29.97 fps telecine source, applied IVTC, used Xvid as encoder and avi as container.
And got the following:
Frame rate                               : 23.976 (24000/1001) FPS
Original frame rate                      : 23.976 (23976/1000) FPS
Where 'Original frame rate' indicates the frame rate from the stream itself and 'Frame rate' indicates the frame rate from the video stream.
-> Will look into it.

Cu Selur
Reply
#9
Found a solution explicitly setting '-ofps' with a fraction seems to fix the issue with Xvid and the .avi container.
Will create a dev-build for testing and send you a link once I can reproduce the MP4Box issue.

Cu Selur
Reply


Forum Jump:


Users browsing this thread: 1 Guest(s)