Crashes all most encodes
#1
Please, read the 'Infos needed to fix&reproduce bugs,..'-sticky before you post about a problem.Please, read the 'Infos needed to fix&reproduce bugs,..'-sticky before you post about a problem.Please, read the 'Infos needed to fix&reproduce bugs,..'-sticky before you post about a problem.

So far Ive only been able to encode a .ts style file.
Everything else crashes.
I am using a new mobo.
It is stable thru all testing programs ive used.


Thanks =)
Reply
#2
From the looks of it the decoding call crashes for your source.
"C:\PROGRA~1\Hybrid\64bit\ffmpeg.exe" -y -loglevel fatal -threads 8 -i "C:\Users\fried\Videos\Tv Shows\Spider.2002.1080p.AMZN.WEB-DL.DDP5.1.H.264-monkee\Spider.2002.1080p.AMZN.mkv" -map 0:0 -an -sn  -vsync 0 -strict -1 -pix_fmt yuv420p10le  -f yuv4mpegpipe - | "C:\PROGRA~1\Hybrid\64bit\x265.exe" --input - --output-depth 10 --y4m --profile main10 --limit-modes --max-merge 3 --rc-lookahead 25 --lookahead-slices 4 --pass 1 --no-slow-firstpass --bitrate 1600 --rdoq-level 2 --range limited --colormatrix bt709 --stats "C:\Users\fried\AppData\Local\Temp\Spider.2002.1080p.AMZN.hevc.10bit_09_36_08_8410_04.stats" --multi-pass-opt-rps --output NUL

What happens if you call:
"C:\PROGRA~1\Hybrid\64bit\ffmpeg.exe" -y -threads 8 -i "C:\Users\fried\Videos\Tv Shows\Spider.2002.1080p.AMZN.WEB-DL.DDP5.1.H.264-monkee\Spider.2002.1080p.AMZN.mkv" -map 0:0 -an -sn  -vsync 0 -strict -1 -pix_fmt yuv420p10le  -f yuv4mpegpipe NUL
inside a windows command prompt?

Cu Selur
Reply
#3
This is what happened. (I have never used cmd line input myself. If it produced a file I have no clue where it is, lol)
C:\Program Files\Hybrid\64bit>ffmpeg -y -threads 8 -i "C:\Users\fried\Videos\Tv Shows\Spider.2002.1080p.AMZN.WEB-DL.DDP5.1.H.264-monkee\Spider.2002.1080p.AMZN.mkv" -map 0:0 -an -sn  -vsync 0 -strict -1 -pix_fmt yuv420p10le  -f yuv4mpegpipe NUL
ffmpeg version N-89948-ge3d946b3f4 Copyright (c) 2000-2018 the FFmpeg developers
  built with gcc 7.3.0 (Rev1, Built by MSYS2 project)
  configuration:  --enable-gmp --enable-libmp3lame --enable-libopus --enable-libvorbis --enable-libvpx --enable-libx264 --enable-libx265 --enable-fontconfig --enable-gnutls --enable-libass --enable-libbluray --enable-libfreetype --enable-libmfx --enable-libmysofa --enable-libopencore-amrnb --enable-libopencore-amrwb --enable-libopenjpeg --enable-libsnappy --enable-libsoxr --enable-libspeex --enable-libtheora --enable-libtwolame --enable-libvidstab --enable-libvo-amrwbenc --enable-libwavpack --enable-libwebp --enable-libxml2 --enable-libzimg --enable-libshine --enable-gpl --enable-avisynth --extra-cflags=-DLIBTWOLAME_STATIC --extra-libs=-lstdc++ --extra-cflags=-DLIBXML_STATIC --enable-version3 --disable-debug
  libavutil      56.  7.100 / 56.  7.100
  libavcodec     58.  9.100 / 58.  9.100
  libavformat    58.  7.100 / 58.  7.100
  libavdevice    58.  0.101 / 58.  0.101
  libavfilter     7. 11.101 /  7. 11.101
  libswscale      5.  0.101 /  5.  0.101
  libswresample   3.  0.101 /  3.  0.101
  libpostproc    55.  0.100 / 55.  0.100
Input #0, matroska,webm, from 'C:\Users\fried\Videos\Tv Shows\Spider.2002.1080p.AMZN.WEB-DL.DDP5.1.H.264-monkee\Spider.2002.1080p.AMZN.mkv':
  Metadata:
    encoder         : libebml v1.3.4 + libmatroska v1.4.5
  Duration: 01:38:40.11, start: 0.000000, bitrate: 11986 kb/s
    Stream #0:0: Video: h264 (High), yuv420p(tv, bt709, progressive), 1920x1080 [SAR 1:1 DAR 16:9], 29.97 fps, 29.97 tbr, 1k tbn, 59.94 tbc (default)
    Metadata:
      BPS             : 11344597
      BPS-eng         : 11344597
      DURATION        : 01:38:40.114000000
      DURATION-eng    : 01:38:40.114000000
      NUMBER_OF_FRAMES: 177426
      NUMBER_OF_FRAMES-eng: 177426
      NUMBER_OF_BYTES : 8395163446
      NUMBER_OF_BYTES-eng: 8395163446
      _STATISTICS_WRITING_APP: mkvmerge v12.0.0 ('Trust / Lust') 64bit
      _STATISTICS_WRITING_APP-eng: mkvmerge v12.0.0 ('Trust / Lust') 64bit
      _STATISTICS_WRITING_DATE_UTC: 2017-10-21 04:33:39
      _STATISTICS_WRITING_DATE_UTC-eng: 2017-10-21 04:33:39
      _STATISTICS_TAGS: BPS DURATION NUMBER_OF_FRAMES NUMBER_OF_BYTES
      _STATISTICS_TAGS-eng: BPS DURATION NUMBER_OF_FRAMES NUMBER_OF_BYTES
    Stream #0:1(eng): Audio: eac3, 48000 Hz, 5.1(side), fltp, 640 kb/s (default)
    Metadata:
      BPS             : 640000
      BPS-eng         : 640000
      DURATION        : 01:38:40.032000000
      DURATION-eng    : 01:38:40.032000000
      NUMBER_OF_FRAMES: 185001
      NUMBER_OF_FRAMES-eng: 185001
      NUMBER_OF_BYTES : 473602560
      NUMBER_OF_BYTES-eng: 473602560
      _STATISTICS_WRITING_APP: mkvmerge v12.0.0 ('Trust / Lust') 64bit
      _STATISTICS_WRITING_APP-eng: mkvmerge v12.0.0 ('Trust / Lust') 64bit
      _STATISTICS_WRITING_DATE_UTC: 2017-10-21 04:33:39
      _STATISTICS_WRITING_DATE_UTC-eng: 2017-10-21 04:33:39
      _STATISTICS_TAGS: BPS DURATION NUMBER_OF_FRAMES NUMBER_OF_BYTES
      _STATISTICS_TAGS-eng: BPS DURATION NUMBER_OF_FRAMES NUMBER_OF_BYTES
    Stream #0:2(eng): Subtitle: subrip
    Metadata:
      BPS             : 25
      BPS-eng         : 25
      DURATION        : 01:33:39.900000000
      DURATION-eng    : 01:33:39.900000000
      NUMBER_OF_FRAMES: 827
      NUMBER_OF_FRAMES-eng: 827
      NUMBER_OF_BYTES : 17663
      NUMBER_OF_BYTES-eng: 17663
      _STATISTICS_WRITING_APP: mkvmerge v12.0.0 ('Trust / Lust') 64bit
      _STATISTICS_WRITING_APP-eng: mkvmerge v12.0.0 ('Trust / Lust') 64bit
      _STATISTICS_WRITING_DATE_UTC: 2017-10-21 04:33:39
      _STATISTICS_WRITING_DATE_UTC-eng: 2017-10-21 04:33:39
      _STATISTICS_TAGS: BPS DURATION NUMBER_OF_FRAMES NUMBER_OF_BYTES
      _STATISTICS_TAGS-eng: BPS DURATION NUMBER_OF_FRAMES NUMBER_OF_BYTES
Stream mapping:
  Stream #0:0 -> #0:0 (h264 (native) -> wrapped_avframe (native))
Press [q] to stop, [?] for help
[yuv4mpegpipe @ 000002825adab240] Warning: generating non standard YUV stream. Mjpegtools will not work.
Output #0, yuv4mpegpipe, to 'NUL':
  Metadata:
    encoder         : Lavf58.7.100
    Stream #0:0: Video: wrapped_avframe, yuv420p10le, 1920x1080 [SAR 1:1 DAR 16:9], q=2-31, 200 kb/s, 29.97 fps, 29.97 tbn, 29.97 tbc (default)
    Metadata:
      BPS             : 11344597
      BPS-eng         : 11344597
      DURATION        : 01:38:40.114000000
      DURATION-eng    : 01:38:40.114000000
      NUMBER_OF_FRAMES: 177426
      NUMBER_OF_FRAMES-eng: 177426
      NUMBER_OF_BYTES : 8395163446
      NUMBER_OF_BYTES-eng: 8395163446
      _STATISTICS_WRITING_APP: mkvmerge v12.0.0 ('Trust / Lust') 64bit
      _STATISTICS_WRITING_APP-eng: mkvmerge v12.0.0 ('Trust / Lust') 64bit
      _STATISTICS_WRITING_DATE_UTC: 2017-10-21 04:33:39
      _STATISTICS_WRITING_DATE_UTC-eng: 2017-10-21 04:33:39
      _STATISTICS_TAGS: BPS DURATION NUMBER_OF_FRAMES NUMBER_OF_BYTES
      _STATISTICS_TAGS-eng: BPS DURATION NUMBER_OF_FRAMES NUMBER_OF_BYTES
      encoder         : Lavc58.9.100 wrapped_avframe
frame=177426 fps=283 q=-0.0 Lsize=1077863990kB time=01:38:40.11 bitrate=1491501.9kbits/s speed=9.43x
video:92871kB audio:0kB subtitle:0kB other streams:0kB global headers:0kB muxing overhead: 1160498.125000%

I'm just gonna take a shot in the dark, but I really have no idea.. does it have something to do with the 2pass or x265?
Reply
#4
That looks fine, strange from the debug it looked like a decoding issue,..
Does it show an error if you call:
"C:\PROGRA~1\Hybrid\64bit\ffmpeg.exe" -y -loglevel fatal -threads 8 -i "C:\Users\fried\Videos\Tv Shows\Spider.2002.1080p.AMZN.WEB-DL.DDP5.1.H.264-monkee\Spider.2002.1080p.AMZN.mkv" -map 0:0 -an -sn  -vsync 0 -strict -1 -pix_fmt yuv420p10le  -f yuv4mpegpipe - | "C:\PROGRA~1\Hybrid\64bit\x265.exe" --input - --output-depth 10 --y4m --profile main10 --limit-modes --max-merge 3 --rc-lookahead 25 --lookahead-slices 4 --pass 1 --no-slow-firstpass --bitrate 1600 --rdoq-level 2 --range limited --colormatrix bt709 --stats "C:\Users\fried\AppData\Local\Temp\Spider.2002.1080p.AMZN.hevc.10bit_09_36_08_8410_04.stats" --multi-pass-opt-rps --output NUL

Cu Selur
Reply
#5
Quote:2017.10.03.1
Okay,... uninstall Hyrid completely (with settings) and install the latest release. Smile
Reply


Forum Jump:


Users browsing this thread: 1 Guest(s)