[HELP] How to set a subtitle as the default track
#11
Think I found&fixed the problem, will send you a link to a dev version for testing in a few minutes.

Cu Selur
Reply
#12
(28.10.2018, 09:36)Selur Wrote: Think I found&fixed the problem, will send you a link to a dev version for testing in a few minutes.

Cu Selur

Thanks let me test it
Reply
#13
Its ok now Default tag is being passed through. Whats left is the track name/description
Reply
#14
No clue what name an description you are referring to.
Looking at the mediaInfo output:
Text
Count                                    : 238
Count of stream of this kind             : 1
Kind of stream                           : Text
Kind of stream                           : Text
Stream identifier                        : 0
StreamOrder                              : 2
ID                                       : 3
ID                                       : 3
Unique ID                                : 3
Format                                   : ASS
Format                                   : ASS
Format/Url                               : http://ffdshow.sourceforge.net/tikiwiki/tiki-index.php?page=Getting+ffdshow
Commercial name                          : ASS
Codec ID                                 : S_TEXT/ASS
Codec ID/Info                            : Advanced Sub Station Alpha
Duration                                 : 329690.000000
Duration                                 : 5 min 29 s
Duration                                 : 5 min 29 s 690 ms
Duration                                 : 5 min 29 s
Duration                                 : 00:05:29.690
Duration                                 : 00:05:29.690
Bit rate                                 : 96
Bit rate                                 : 96 b/s
Frame rate                               : 0.173
Frame rate                               : 0.173 FPS
Frame count                              : 57
Count of elements                        : 57
Compression mode                         : Lossless
Compression mode                         : Lossless
Stream size                              : 3964
Stream size                              : 3.87 KiB (0%)
Stream size                              : 4 KiB
Stream size                              : 3.9 KiB
Stream size                              : 3.87 KiB
Stream size                              : 3.871 KiB
Stream size                              : 3.87 KiB (0%)
Proportion of this stream                : 0.00012
Title                                    : Full Subs
Language                                 : en
Language                                 : English
Language                                 : English
Language                                 : en
Language                                 : eng
Language                                 : en
Default                                  : Yes
Default                                  : Yes
Forced                                   : No
Forced                                   : No
I see no special name or description.


Cu Selur
Reply
#15
I meant the Title "full subs"
Reply
#16
Ah, that.
Hybrid does neither load nor pass-through those.
Not really planning to add this to Hybrid since folks sometimes tend you put non filesystem conform stuff in their tags.
You can set those tags in the Tags-tab, but like I said I'm not planning to add this as a feature to Hybrid.

Cu Selur
Reply


Forum Jump:


Users browsing this thread: 1 Guest(s)